<?xml version="1.0" standalone="no"?>
<!DOCTYPE svg PUBLIC "-//W3C//DTD SVG 1.1//EN" "http://www.w3.org/Graphics/SVG/1.1/DTD/svg11.dtd" >
<svg>
<metadata>
Created by FontForge 20090622 at Mon Jul  2 10:48:03 2018
 By ffonts
Made by 629Fonts. 2017. All Rights Reserved
</metadata>
<defs>
<font id="SuperFamiFont" horiz-adv-x="252" >
  <font-face 
    font-family="Super FamiFont"
    font-weight="400"
    font-stretch="normal"
    units-per-em="2048"
    panose-1="2 0 5 0 0 0 0 0 0 0"
    ascent="1638"
    descent="-410"
    x-height="1434"
    cap-height="1434"
    bbox="91 0 2818 1664"
    underline-thickness="150"
    underline-position="-292"
    unicode-range="U+0020-U+F002"
  />
<missing-glyph horiz-adv-x="1914" 
d="M381 1664h128v-1408h-128v1408zM637 1664h128v-1408h-128v1408zM1149 384v1280h640v-1664h-1664v1664h128v-1536h640v1536h128v-1280h128zM1021 256v-128h128v128h-128z" />
    <glyph glyph-name=".notdef" horiz-adv-x="1914" 
d="M381 1664h128v-1408h-128v1408zM637 1664h128v-1408h-128v1408zM1149 384v1280h640v-1664h-1664v1664h128v-1536h640v1536h128v-1280h128zM1021 256v-128h128v128h-128z" />
    <glyph glyph-name=".null" 
 />
    <glyph glyph-name="nonmarkingreturn" 
 />
    <glyph glyph-name="space" unicode=" " horiz-adv-x="500" 
 />
    <glyph glyph-name="space" unicode="&#xa0;" horiz-adv-x="500" 
 />
    <glyph glyph-name="exclam" unicode="!" 
 />
    <glyph glyph-name="quotedbl" unicode="&#x22;" 
 />
    <glyph glyph-name="numbersign" unicode="#" 
 />
    <glyph glyph-name="dollar" unicode="$" 
 />
    <glyph glyph-name="percent" unicode="%" 
 />
    <glyph glyph-name="ampersand" unicode="&#x26;" 
 />
    <glyph glyph-name="quotesingle" unicode="'" 
 />
    <glyph glyph-name="parenleft" unicode="(" 
 />
    <glyph glyph-name="parenright" unicode=")" 
 />
    <glyph glyph-name="asterisk" unicode="*" 
 />
    <glyph glyph-name="plus" unicode="+" 
 />
    <glyph glyph-name="comma" unicode="," 
 />
    <glyph glyph-name="hyphen" unicode="-" horiz-adv-x="1223" 
d="M208 873h979v-294h-979v294z" />
    <glyph glyph-name="hyphen" unicode="&#xad;" horiz-adv-x="1223" 
d="M208 873h979v-294h-979v294z" />
    <glyph glyph-name="period" unicode="." 
 />
    <glyph glyph-name="slash" unicode="/" 
 />
    <glyph glyph-name="zero" unicode="0" horiz-adv-x="2046" 
d="M1925 717q0 -186 -62 -321.5t-178.5 -223t-283 -130t-378.5 -42.5t-378.5 42.5t-282.5 130t-178.5 223t-62.5 321.5t62.5 321.5t178.5 223t282.5 130t378.5 42.5t378.5 -42.5t283 -130t178.5 -223t62 -321.5zM1023 303q444 0 444 414t-444 414t-444 -414t444 -414z" />
    <glyph glyph-name="one" unicode="1" horiz-adv-x="910" 
d="M785 1434v-1434h-459v1134h-207v300h666z" />
    <glyph glyph-name="two" unicode="2" horiz-adv-x="1843" 
d="M122 0v435q0 209 128 320.5t370 111.5h484q161 0 161 135q0 132 -161 132h-942v300h1063q239 0 368.5 -111.5t129.5 -320.5t-131 -320.5t-381 -111.5h-473q-158 0 -158 -135v-138h1103v-297h-1561z" />
    <glyph glyph-name="three" unicode="3" horiz-adv-x="1789" 
d="M120 1434h1049q239 0 368.5 -111.5t129.5 -320.5q0 -197 -194 -284q194 -77 194 -286t-129.5 -320.5t-368.5 -111.5h-1049v300h928q161 0 161 132q0 138 -161 138h-828v297h828q161 0 161 135q0 132 -161 132h-928v300z" />
    <glyph glyph-name="four" unicode="4" horiz-adv-x="2017" 
d="M1213 0v254h-1091v300l907 880h642v-880h227v-300h-227v-254h-458zM1213 1183l-625 -629h625v629z" />
    <glyph glyph-name="five" unicode="5" horiz-adv-x="1816" 
d="M124 1434h1531v-300h-1073v-267h615q242 0 370 -111.5t128 -320.5q0 -212 -128 -323.5t-370 -111.5h-1073v297h955q158 0 158 138q0 135 -158 135h-955v864z" />
    <glyph glyph-name="six" unicode="6" horiz-adv-x="1848" 
d="M1024 0q-483 0 -692.5 180.5t-209.5 536.5t209.5 536.5t622.5 180.5h649v-297h-591q-215 0 -310.5 -66t-112.5 -198h641q242 0 370 -124.5t128 -313.5q0 -192 -153 -313.5t-551 -121.5zM589 579q7 -129 102.5 -204t320.5 -75q258 0 258 144q0 135 -158 135h-523z" />
    <glyph glyph-name="seven" unicode="7" horiz-adv-x="1811" 
d="M1170 1134h-1051v300h1573v-300l-757 -1134h-522z" />
    <glyph glyph-name="eight" unicode="8" horiz-adv-x="1816" 
d="M759 1134q-161 0 -161 -132q0 -135 161 -135h299q161 0 161 135q0 132 -161 132h-299zM1078 300q161 0 161 132q0 138 -161 138h-339q-161 0 -161 -138q0 -132 161 -132h339zM1179 1434q239 0 363.5 -111.5t124.5 -320.5q0 -187 -234 -284q264 -87 264 -326
q0 -169 -129.5 -280.5t-368.5 -111.5h-581q-239 0 -368.5 111.5t-129.5 280.5q0 239 264 326q-234 97 -234 284q0 209 124.5 320.5t363.5 111.5h541z" />
    <glyph glyph-name="nine" unicode="9" horiz-adv-x="1847" 
d="M914 1434q423 0 617.5 -180.5t194.5 -536.5t-209.5 -536.5t-622.5 -180.5h-649v297h591q215 0 310.5 66t112.5 198h-641q-242 0 -370 109.5t-128 298.5q0 192 188 328.5t606 136.5zM1259 855q-7 129 -87.5 204t-285.5 75q-308 0 -308 -154q0 -125 158 -125h523z" />
    <glyph glyph-name="colon" unicode=":" 
 />
    <glyph glyph-name="semicolon" unicode=";" 
 />
    <glyph glyph-name="semicolon" unicode="&#x37e;" 
 />
    <glyph glyph-name="less" unicode="&#x3c;" 
 />
    <glyph glyph-name="equal" unicode="=" 
 />
    <glyph glyph-name="greater" unicode="&#x3e;" 
 />
    <glyph glyph-name="question" unicode="?" 
 />
    <glyph glyph-name="at" unicode="@" 
 />
    <glyph glyph-name="A" unicode="A" horiz-adv-x="1845" 
d="M630 0q-253 0 -390 117.5t-137 325.5q0 207 137 324.5t390 117.5h636v52q0 109 -51.5 153t-177.5 44h-825v300h842q355 0 512.5 -135t157.5 -441v-858h-1094zM1266 591h-513q-185 0 -185 -148q0 -149 185 -149h513v297z" />
    <glyph glyph-name="B" unicode="B" horiz-adv-x="1755" 
d="M581 579v-279h414q196 0 196 139q0 140 -196 140h-414zM1140 1434q205 0 323 -95t118 -285q0 -95 -28 -154.5t-65.5 -94t-75 -49.5t-57.5 -20q39 -6 89.5 -25.5t96 -61.5t77 -107t31.5 -162q0 -184 -125 -282t-338 -98h-1063v1434h1017zM934 873q96 0 142.5 31t46.5 101
q0 69 -46.5 100.5t-142.5 31.5h-353v-264h353z" />
    <glyph glyph-name="C" unicode="C" horiz-adv-x="1704" 
d="M1586 1131h-549q-250 0 -362 -97t-112 -317t110 -317t361 -97h552v-303h-666q-404 0 -609 180.5t-205 536.5q0 355 205 536t609 181h666v-303z" />
    <glyph glyph-name="D" unicode="D" horiz-adv-x="1845" 
d="M581 1131v-828h224q251 0 366 97t115 317t-117 317t-367 97h-221zM919 1434q404 0 609 -181t205 -536q0 -356 -205 -536.5t-609 -180.5h-796v1434h796z" />
    <glyph glyph-name="E" unicode="E" horiz-adv-x="1714" 
d="M1587 1137h-591q-215 0 -310.5 -66t-112.5 -198h1014v-294h-1014q7 -129 102.5 -204t320.5 -75h591v-300h-649q-413 0 -622.5 180.5t-209.5 536.5t209.5 536.5t622.5 180.5h649v-297z" />
    <glyph glyph-name="F" unicode="F" horiz-adv-x="1721" 
d="M116 717q0 356 209.5 536.5t622.5 180.5h649v-297h-591q-215 0 -310.5 -66t-112.5 -198h1014v-294h-1023v-579h-458v717z" />
    <glyph glyph-name="G" unicode="G" horiz-adv-x="1813" 
d="M1686 854v-854h-766q-404 0 -609 180.5t-205 536.5q0 355 205 536t609 181h766v-293h-649q-250 0 -362 -97t-112 -327q0 -220 110 -317t361 -97h194v267h-296v284h754z" />
    <glyph glyph-name="H" unicode="H" horiz-adv-x="1908" 
d="M581 567v-567h-458v1434h458v-567h742v567h458v-1434h-458v567h-742z" />
    <glyph glyph-name="I" unicode="I" horiz-adv-x="708" 
d="M581 1434v-1434h-458v1434h458z" />
    <glyph glyph-name="J" unicode="J" horiz-adv-x="1410" 
d="M1288 1434v-717q0 -356 -205 -536.5t-609 -180.5h-366v303h252q251 0 361 97t110 317v717h457z" />
    <glyph glyph-name="K" unicode="K" horiz-adv-x="1871" 
d="M1721 1434l-693 -641l754 -793h-546l-655 696v-696h-458v1434h458v-585l607 585h533z" />
    <glyph glyph-name="L" unicode="L" horiz-adv-x="1807" 
d="M575 1434v-917q0 -214 251 -214h872v-303h-986q-594 0 -594 517v917h457z" />
    <glyph glyph-name="M" unicode="M" horiz-adv-x="2408" 
d="M1831 0v858q0 144 -72 205.5t-239 61.5h-95v-1125h-458v1125h-386v-1125h-458v1434h1475q362 0 526 -141t164 -453v-840h-457z" />
    <glyph glyph-name="N" unicode="N" horiz-adv-x="1853" 
d="M1109 1434q292 0 458 -141t166 -453v-840h-458v843q0 150 -77 216t-201 66h-416v-1125h-458v1434h986z" />
    <glyph glyph-name="O" unicode="O" horiz-adv-x="2022" 
d="M1910 717q0 -186 -62 -321.5t-178.5 -223t-283 -130t-378.5 -42.5t-378.5 42.5t-282.5 130t-178.5 223t-62.5 321.5t62.5 321.5t178.5 223t282.5 130t378.5 42.5t378.5 -42.5t283 -130t178.5 -223t62 -321.5zM1008 303q444 0 444 414t-444 414t-444 -414t444 -414z" />
    <glyph glyph-name="P" unicode="P" horiz-adv-x="1800" 
d="M123 0v1434h945q321 0 471.5 -127.5t150.5 -348.5q0 -218 -149 -345.5t-473 -127.5h-487v-485h-458zM1208 957q0 180 -221 180h-406v-358h406q221 0 221 178z" />
    <glyph glyph-name="Q" unicode="Q" horiz-adv-x="2028" 
d="M1008 303q444 0 444 414t-444 414t-444 -414t444 -414zM1008 0q-212 0 -378.5 42.5t-282.5 130t-178.5 223t-62.5 321.5t62.5 321.5t178.5 223t282.5 130t378.5 42.5t378.5 -42.5t283 -130t178.5 -223t62 -321.5q0 -256 -197 -417h197v-300h-902z" />
    <glyph glyph-name="R" unicode="R" horiz-adv-x="1881" 
d="M1268 940q0 197 -221 197h-466v-398h466q221 0 221 201zM926 445h-345v-445h-458v1434h1035q301 0 446.5 -137.5t145.5 -355.5q0 -221 -144 -358q-73 -70 -186 -104l363 -479h-537z" />
    <glyph glyph-name="S" unicode="S" horiz-adv-x="1817" 
d="M145 0v297h945q158 0 158 138q0 135 -158 135h-473q-249 0 -380.5 111.5t-131.5 320.5t129.5 320.5t368.5 111.5h1063v-300h-941q-162 0 -162 -132q0 -135 162 -135h483q243 0 370.5 -111.5t127.5 -320.5q0 -212 -127.5 -323.5t-370.5 -111.5h-1063z" />
    <glyph glyph-name="T" unicode="T" horiz-adv-x="1789" 
d="M662 1134h-557v300h1573v-300h-557v-1134h-459v1134z" />
    <glyph glyph-name="U" unicode="U" horiz-adv-x="1825" 
d="M742 0q-292 0 -458 141t-166 453v840h458v-843q0 -150 77 -216t201 -66h386v1125h458v-1434h-956z" />
    <glyph glyph-name="V" unicode="V" horiz-adv-x="2073" 
d="M777 0l-683 1434h479l468 -1017l468 1017h468l-683 -1434h-517z" />
    <glyph glyph-name="W" unicode="W" horiz-adv-x="2916" 
d="M1785 0l-329 976l-330 -976h-503l-529 1434h473l339 -981l311 981h502l315 -981l335 981h449l-530 -1434h-503z" />
    <glyph glyph-name="X" unicode="X" horiz-adv-x="1984" 
d="M1270 726l621 -726h-532l-373 467l-376 -467h-519l623 717l-606 717h516l373 -463l379 463h498z" />
    <glyph glyph-name="Y" unicode="Y" horiz-adv-x="1993" 
d="M766 462l-674 972h516l394 -637l398 637h498l-674 -972v-462h-458v462z" />
    <glyph glyph-name="Z" unicode="Z" horiz-adv-x="1706" 
d="M1589 1434v-300l-864 -834h864v-300h-1473v300l864 834h-864v300h1473z" />
    <glyph glyph-name="bracketleft" unicode="[" 
 />
    <glyph glyph-name="backslash" unicode="\" 
 />
    <glyph glyph-name="bracketright" unicode="]" 
 />
    <glyph glyph-name="asciicircum" unicode="^" 
 />
    <glyph glyph-name="underscore" unicode="_" 
 />
    <glyph glyph-name="grave" unicode="`" 
 />
    <glyph glyph-name="a" unicode="a" horiz-adv-x="1845" 
d="M630 0q-253 0 -390 117.5t-137 325.5q0 207 137 324.5t390 117.5h636v52q0 109 -51.5 153t-177.5 44h-825v300h842q355 0 512.5 -135t157.5 -441v-858h-1094zM1266 591h-513q-185 0 -185 -148q0 -149 185 -149h513v297z" />
    <glyph glyph-name="b" unicode="b" horiz-adv-x="1755" 
d="M581 579v-279h414q196 0 196 139q0 140 -196 140h-414zM1140 1434q205 0 323 -95t118 -285q0 -95 -28 -154.5t-65.5 -94t-75 -49.5t-57.5 -20q39 -6 89.5 -25.5t96 -61.5t77 -107t31.5 -162q0 -184 -125 -282t-338 -98h-1063v1434h1017zM934 873q96 0 142.5 31t46.5 101
q0 69 -46.5 100.5t-142.5 31.5h-353v-264h353z" />
    <glyph glyph-name="c" unicode="c" horiz-adv-x="1704" 
d="M1586 1131h-549q-250 0 -362 -97t-112 -317t110 -317t361 -97h552v-303h-666q-404 0 -609 180.5t-205 536.5q0 355 205 536t609 181h666v-303z" />
    <glyph glyph-name="d" unicode="d" horiz-adv-x="1845" 
d="M581 1131v-828h224q251 0 366 97t115 317t-117 317t-367 97h-221zM919 1434q404 0 609 -181t205 -536q0 -356 -205 -536.5t-609 -180.5h-796v1434h796z" />
    <glyph glyph-name="e" unicode="e" horiz-adv-x="1714" 
d="M1587 1137h-591q-215 0 -310.5 -66t-112.5 -198h1014v-294h-1014q7 -129 102.5 -204t320.5 -75h591v-300h-649q-413 0 -622.5 180.5t-209.5 536.5t209.5 536.5t622.5 180.5h649v-297z" />
    <glyph glyph-name="f" unicode="f" horiz-adv-x="1721" 
d="M116 717q0 356 209.5 536.5t622.5 180.5h649v-297h-591q-215 0 -310.5 -66t-112.5 -198h1014v-294h-1023v-579h-458v717z" />
    <glyph glyph-name="g" unicode="g" horiz-adv-x="1813" 
d="M1686 854v-854h-766q-404 0 -609 180.5t-205 536.5q0 355 205 536t609 181h766v-293h-649q-250 0 -362 -97t-112 -327q0 -220 110 -317t361 -97h194v267h-296v284h754z" />
    <glyph glyph-name="h" unicode="h" horiz-adv-x="1908" 
d="M581 567v-567h-458v1434h458v-567h742v567h458v-1434h-458v567h-742z" />
    <glyph glyph-name="i" unicode="i" horiz-adv-x="708" 
d="M581 1434v-1434h-458v1434h458z" />
    <glyph glyph-name="j" unicode="j" horiz-adv-x="1410" 
d="M1288 1434v-717q0 -356 -205 -536.5t-609 -180.5h-366v303h252q251 0 361 97t110 317v717h457z" />
    <glyph glyph-name="k" unicode="k" horiz-adv-x="1871" 
d="M1721 1434l-693 -641l754 -793h-546l-655 696v-696h-458v1434h458v-585l607 585h533z" />
    <glyph glyph-name="l" unicode="l" horiz-adv-x="1807" 
d="M575 1434v-917q0 -214 251 -214h872v-303h-986q-594 0 -594 517v917h457z" />
    <glyph glyph-name="m" unicode="m" horiz-adv-x="2408" 
d="M1831 0v858q0 144 -72 205.5t-239 61.5h-95v-1125h-458v1125h-386v-1125h-458v1434h1475q362 0 526 -141t164 -453v-840h-457z" />
    <glyph glyph-name="n" unicode="n" horiz-adv-x="1853" 
d="M1109 1434q292 0 458 -141t166 -453v-840h-458v843q0 150 -77 216t-201 66h-416v-1125h-458v1434h986z" />
    <glyph glyph-name="o" unicode="o" horiz-adv-x="2022" 
d="M1910 717q0 -186 -62 -321.5t-178.5 -223t-283 -130t-378.5 -42.5t-378.5 42.5t-282.5 130t-178.5 223t-62.5 321.5t62.5 321.5t178.5 223t282.5 130t378.5 42.5t378.5 -42.5t283 -130t178.5 -223t62 -321.5zM1008 303q444 0 444 414t-444 414t-444 -414t444 -414z" />
    <glyph glyph-name="p" unicode="p" horiz-adv-x="1800" 
d="M123 0v1434h945q321 0 471.5 -127.5t150.5 -348.5q0 -218 -149 -345.5t-473 -127.5h-487v-485h-458zM1208 957q0 180 -221 180h-406v-358h406q221 0 221 178z" />
    <glyph glyph-name="q" unicode="q" horiz-adv-x="2028" 
d="M1008 303q444 0 444 414t-444 414t-444 -414t444 -414zM1008 0q-212 0 -378.5 42.5t-282.5 130t-178.5 223t-62.5 321.5t62.5 321.5t178.5 223t282.5 130t378.5 42.5t378.5 -42.5t283 -130t178.5 -223t62 -321.5q0 -256 -197 -417h197v-300h-902z" />
    <glyph glyph-name="r" unicode="r" horiz-adv-x="1881" 
d="M1268 940q0 197 -221 197h-466v-398h466q221 0 221 201zM926 445h-345v-445h-458v1434h1035q301 0 446.5 -137.5t145.5 -355.5q0 -221 -144 -358q-73 -70 -186 -104l363 -479h-537z" />
    <glyph glyph-name="s" unicode="s" horiz-adv-x="1817" 
d="M145 0v297h945q158 0 158 138q0 135 -158 135h-473q-249 0 -380.5 111.5t-131.5 320.5t129.5 320.5t368.5 111.5h1063v-300h-941q-162 0 -162 -132q0 -135 162 -135h483q243 0 370.5 -111.5t127.5 -320.5q0 -212 -127.5 -323.5t-370.5 -111.5h-1063z" />
    <glyph glyph-name="t" unicode="t" horiz-adv-x="1789" 
d="M662 1134h-557v300h1573v-300h-557v-1134h-459v1134z" />
    <glyph glyph-name="u" unicode="u" horiz-adv-x="1825" 
d="M742 0q-292 0 -458 141t-166 453v840h458v-843q0 -150 77 -216t201 -66h386v1125h458v-1434h-956z" />
    <glyph glyph-name="v" unicode="v" horiz-adv-x="2073" 
d="M777 0l-683 1434h479l468 -1017l468 1017h468l-683 -1434h-517z" />
    <glyph glyph-name="w" unicode="w" horiz-adv-x="2916" 
d="M1785 0l-329 976l-330 -976h-503l-529 1434h473l339 -981l311 981h502l315 -981l335 981h449l-530 -1434h-503z" />
    <glyph glyph-name="x" unicode="x" horiz-adv-x="1984" 
d="M1270 726l621 -726h-532l-373 467l-376 -467h-519l623 717l-606 717h516l373 -463l379 463h498z" />
    <glyph glyph-name="y" unicode="y" horiz-adv-x="1993" 
d="M766 462l-674 972h516l394 -637l398 637h498l-674 -972v-462h-458v462z" />
    <glyph glyph-name="z" unicode="z" horiz-adv-x="1706" 
d="M1589 1434v-300l-864 -834h864v-300h-1473v300l864 834h-864v300h1473z" />
    <glyph glyph-name="braceleft" unicode="{" 
 />
    <glyph glyph-name="bar" unicode="|" 
 />
    <glyph glyph-name="braceright" unicode="}" 
 />
    <glyph glyph-name="asciitilde" unicode="~" 
 />
    <glyph glyph-name="exclamdown" unicode="&#xa1;" 
 />
    <glyph glyph-name="cent" unicode="&#xa2;" 
 />
    <glyph glyph-name="sterling" unicode="&#xa3;" 
 />
    <glyph glyph-name="currency" unicode="&#xa4;" 
 />
    <glyph glyph-name="yen" unicode="&#xa5;" 
 />
    <glyph glyph-name="brokenbar" unicode="&#xa6;" 
 />
    <glyph glyph-name="section" unicode="&#xa7;" 
 />
    <glyph glyph-name="dieresis" unicode="&#xa8;" 
 />
    <glyph glyph-name="copyright" unicode="&#xa9;" 
 />
    <glyph glyph-name="ordfeminine" unicode="&#xaa;" 
 />
    <glyph glyph-name="guillemotleft" unicode="&#xab;" 
 />
    <glyph glyph-name="logicalnot" unicode="&#xac;" 
 />
    <glyph glyph-name="registered" unicode="&#xae;" 
 />
    <glyph glyph-name="macron" unicode="&#xaf;" 
 />
    <glyph glyph-name="degree" unicode="&#xb0;" 
 />
    <glyph glyph-name="plusminus" unicode="&#xb1;" 
 />
    <glyph glyph-name="uni00B2" unicode="&#xb2;" 
 />
    <glyph glyph-name="uni00B3" unicode="&#xb3;" 
 />
    <glyph glyph-name="acute" unicode="&#xb4;" 
 />
    <glyph glyph-name="mu" unicode="&#xb5;" 
 />
    <glyph glyph-name="paragraph" unicode="&#xb6;" 
 />
    <glyph glyph-name="periodcentered" unicode="&#xb7;" 
 />
    <glyph glyph-name="periodcentered" unicode="&#x2219;" 
 />
    <glyph glyph-name="cedilla" unicode="&#xb8;" 
 />
    <glyph glyph-name="uni00B9" unicode="&#xb9;" 
 />
    <glyph glyph-name="ordmasculine" unicode="&#xba;" 
 />
    <glyph glyph-name="guillemotright" unicode="&#xbb;" 
 />
    <glyph glyph-name="onequarter" unicode="&#xbc;" 
 />
    <glyph glyph-name="onehalf" unicode="&#xbd;" 
 />
    <glyph glyph-name="threequarters" unicode="&#xbe;" 
 />
    <glyph glyph-name="questiondown" unicode="&#xbf;" 
 />
    <glyph glyph-name="Agrave" unicode="&#xc0;" horiz-adv-x="266" 
 />
    <glyph glyph-name="Aacute" unicode="&#xc1;" horiz-adv-x="266" 
 />
    <glyph glyph-name="Acircumflex" unicode="&#xc2;" horiz-adv-x="266" 
 />
    <glyph glyph-name="Atilde" unicode="&#xc3;" horiz-adv-x="266" 
 />
    <glyph glyph-name="Adieresis" unicode="&#xc4;" horiz-adv-x="266" 
 />
    <glyph glyph-name="Aring" unicode="&#xc5;" horiz-adv-x="266" 
 />
    <glyph glyph-name="AE" unicode="&#xc6;" horiz-adv-x="266" 
 />
    <glyph glyph-name="Ccedilla" unicode="&#xc7;" horiz-adv-x="266" 
 />
    <glyph glyph-name="Egrave" unicode="&#xc8;" horiz-adv-x="266" 
 />
    <glyph glyph-name="Eacute" unicode="&#xc9;" horiz-adv-x="266" 
 />
    <glyph glyph-name="Ecircumflex" unicode="&#xca;" horiz-adv-x="266" 
 />
    <glyph glyph-name="Edieresis" unicode="&#xcb;" horiz-adv-x="266" 
 />
    <glyph glyph-name="Igrave" unicode="&#xcc;" horiz-adv-x="266" 
 />
    <glyph glyph-name="Iacute" unicode="&#xcd;" horiz-adv-x="266" 
 />
    <glyph glyph-name="Icircumflex" unicode="&#xce;" horiz-adv-x="266" 
 />
    <glyph glyph-name="Idieresis" unicode="&#xcf;" horiz-adv-x="266" 
 />
    <glyph glyph-name="Eth" unicode="&#xd0;" horiz-adv-x="266" 
 />
    <glyph glyph-name="Ntilde" unicode="&#xd1;" horiz-adv-x="266" 
 />
    <glyph glyph-name="Ograve" unicode="&#xd2;" horiz-adv-x="266" 
 />
    <glyph glyph-name="Oacute" unicode="&#xd3;" horiz-adv-x="266" 
 />
    <glyph glyph-name="Ocircumflex" unicode="&#xd4;" horiz-adv-x="266" 
 />
    <glyph glyph-name="Otilde" unicode="&#xd5;" horiz-adv-x="266" 
 />
    <glyph glyph-name="Odieresis" unicode="&#xd6;" horiz-adv-x="266" 
 />
    <glyph glyph-name="multiply" unicode="&#xd7;" horiz-adv-x="266" 
 />
    <glyph glyph-name="Oslash" unicode="&#xd8;" horiz-adv-x="266" 
 />
    <glyph glyph-name="Ugrave" unicode="&#xd9;" horiz-adv-x="266" 
 />
    <glyph glyph-name="Uacute" unicode="&#xda;" horiz-adv-x="266" 
 />
    <glyph glyph-name="Ucircumflex" unicode="&#xdb;" horiz-adv-x="266" 
 />
    <glyph glyph-name="Udieresis" unicode="&#xdc;" horiz-adv-x="266" 
 />
    <glyph glyph-name="Yacute" unicode="&#xdd;" horiz-adv-x="266" 
 />
    <glyph glyph-name="Thorn" unicode="&#xde;" horiz-adv-x="266" 
 />
    <glyph glyph-name="germandbls" unicode="&#xdf;" horiz-adv-x="266" 
 />
    <glyph glyph-name="agrave" unicode="&#xe0;" horiz-adv-x="266" 
 />
    <glyph glyph-name="aacute" unicode="&#xe1;" horiz-adv-x="266" 
 />
    <glyph glyph-name="acircumflex" unicode="&#xe2;" horiz-adv-x="266" 
 />
    <glyph glyph-name="atilde" unicode="&#xe3;" horiz-adv-x="266" 
 />
    <glyph glyph-name="adieresis" unicode="&#xe4;" horiz-adv-x="266" 
 />
    <glyph glyph-name="aring" unicode="&#xe5;" horiz-adv-x="266" 
 />
    <glyph glyph-name="ae" unicode="&#xe6;" horiz-adv-x="266" 
 />
    <glyph glyph-name="ccedilla" unicode="&#xe7;" horiz-adv-x="266" 
 />
    <glyph glyph-name="egrave" unicode="&#xe8;" horiz-adv-x="266" 
 />
    <glyph glyph-name="eacute" unicode="&#xe9;" horiz-adv-x="266" 
 />
    <glyph glyph-name="ecircumflex" unicode="&#xea;" horiz-adv-x="266" 
 />
    <glyph glyph-name="edieresis" unicode="&#xeb;" horiz-adv-x="266" 
 />
    <glyph glyph-name="igrave" unicode="&#xec;" horiz-adv-x="266" 
 />
    <glyph glyph-name="iacute" unicode="&#xed;" horiz-adv-x="266" 
 />
    <glyph glyph-name="icircumflex" unicode="&#xee;" horiz-adv-x="266" 
 />
    <glyph glyph-name="idieresis" unicode="&#xef;" horiz-adv-x="266" 
 />
    <glyph glyph-name="eth" unicode="&#xf0;" horiz-adv-x="266" 
 />
    <glyph glyph-name="ntilde" unicode="&#xf1;" horiz-adv-x="266" 
 />
    <glyph glyph-name="ograve" unicode="&#xf2;" horiz-adv-x="266" 
 />
    <glyph glyph-name="oacute" unicode="&#xf3;" horiz-adv-x="266" 
 />
    <glyph glyph-name="ocircumflex" unicode="&#xf4;" horiz-adv-x="266" 
 />
    <glyph glyph-name="otilde" unicode="&#xf5;" horiz-adv-x="266" 
 />
    <glyph glyph-name="odieresis" unicode="&#xf6;" horiz-adv-x="266" 
 />
    <glyph glyph-name="divide" unicode="&#xf7;" horiz-adv-x="266" 
 />
    <glyph glyph-name="oslash" unicode="&#xf8;" horiz-adv-x="266" 
 />
    <glyph glyph-name="ugrave" unicode="&#xf9;" horiz-adv-x="266" 
 />
    <glyph glyph-name="uacute" unicode="&#xfa;" horiz-adv-x="266" 
 />
    <glyph glyph-name="ucircumflex" unicode="&#xfb;" horiz-adv-x="266" 
 />
    <glyph glyph-name="udieresis" unicode="&#xfc;" horiz-adv-x="266" 
 />
    <glyph glyph-name="yacute" unicode="&#xfd;" horiz-adv-x="266" 
 />
    <glyph glyph-name="thorn" unicode="&#xfe;" horiz-adv-x="266" 
 />
    <glyph glyph-name="ydieresis" unicode="&#xff;" horiz-adv-x="266" 
 />
    <glyph glyph-name="dotlessi" unicode="&#x131;" horiz-adv-x="266" 
 />
    <glyph glyph-name="circumflex" unicode="&#x2c6;" 
 />
    <glyph glyph-name="caron" unicode="&#x2c7;" 
 />
    <glyph glyph-name="uni02C9" unicode="&#x2c9;" 
 />
    <glyph glyph-name="breve" unicode="&#x2d8;" 
 />
    <glyph glyph-name="dotaccent" unicode="&#x2d9;" 
 />
    <glyph glyph-name="ring" unicode="&#x2da;" 
 />
    <glyph glyph-name="ogonek" unicode="&#x2db;" 
 />
    <glyph glyph-name="tilde" unicode="&#x2dc;" 
 />
    <glyph glyph-name="hungarumlaut" unicode="&#x2dd;" 
 />
    <glyph glyph-name="endash" unicode="&#x2013;" 
 />
    <glyph glyph-name="emdash" unicode="&#x2014;" 
 />
    <glyph glyph-name="quoteleft" unicode="&#x2018;" 
 />
    <glyph glyph-name="quoteright" unicode="&#x2019;" 
 />
    <glyph glyph-name="quotesinglbase" unicode="&#x201a;" 
 />
    <glyph glyph-name="quotedblleft" unicode="&#x201c;" 
 />
    <glyph glyph-name="quotedblright" unicode="&#x201d;" 
 />
    <glyph glyph-name="quotedblbase" unicode="&#x201e;" 
 />
    <glyph glyph-name="dagger" unicode="&#x2020;" 
 />
    <glyph glyph-name="daggerdbl" unicode="&#x2021;" 
 />
    <glyph glyph-name="bullet" unicode="&#x2022;" 
 />
    <glyph glyph-name="ellipsis" unicode="&#x2026;" 
 />
    <glyph glyph-name="guilsinglleft" unicode="&#x2039;" 
 />
    <glyph glyph-name="guilsinglright" unicode="&#x203a;" 
 />
    <glyph glyph-name="fraction" unicode="&#x2044;" 
 />
    <glyph glyph-name="fraction" unicode="&#x2215;" 
 />
    <glyph glyph-name="franc" unicode="&#x20a3;" 
 />
    <glyph glyph-name="lira" unicode="&#x20a4;" 
 />
    <glyph glyph-name="peseta" unicode="&#x20a7;" 
 />
    <glyph glyph-name="Euro" unicode="&#x20ac;" 
 />
    <glyph glyph-name="afii61352" unicode="&#x2116;" 
 />
    <glyph glyph-name="trademark" unicode="&#x2122;" 
 />
    <glyph glyph-name="partialdiff" unicode="&#x2202;" 
 />
    <glyph glyph-name="Delta" unicode="&#x2206;" 
 />
    <glyph glyph-name="product" unicode="&#x220f;" 
 />
    <glyph glyph-name="summation" unicode="&#x2211;" 
 />
    <glyph glyph-name="minus" unicode="&#x2212;" 
 />
    <glyph glyph-name="radical" unicode="&#x221a;" 
 />
    <glyph glyph-name="infinity" unicode="&#x221e;" 
 />
    <glyph glyph-name="integral" unicode="&#x222b;" 
 />
    <glyph glyph-name="approxequal" unicode="&#x2248;" 
 />
    <glyph glyph-name="lessequal" unicode="&#x2264;" 
 />
    <glyph glyph-name="greaterequal" unicode="&#x2265;" 
 />
    <glyph glyph-name="uniF001" unicode="&#xf001;" 
 />
    <glyph glyph-name="uniF001" unicode="&#xfb01;" 
 />
    <glyph glyph-name="uniF002" unicode="&#xf002;" 
 />
    <glyph glyph-name="uniF002" unicode="&#xfb02;" 
 />
  </font>
</defs>
</svg>
